zzzonedotnet | zzzzone.net | djfattyliver.com | clintonprivateemailserver.com ||||| virtual network

You Make Me Feel: track list

TRACK 01 AUDIO
TITLE “Salinas (Sax mix)”
PERFORMER “INAKI GARCIA”
INDEX 01 00:00:00
TRACK 02 AUDIO
TITLE “Beautiful World (FAM Disco Concept remix)”
PERFORMER “DJ UMBI feat. MONTEL MOORE”
INDEX 01 06:26:00
TRACK 03 AUDIO
TITLE “Hot Sauce”
PERFORMER “BREAD N BUTTA”
INDEX 01 08:30:00
TRACK 04 AUDIO
TITLE “Knock Out Groove”
PERFORMER “C DA AFRO”
INDEX 01 15:48:00
TRACK 05 AUDIO
TITLE “Spiaggia Blu”
PERFORMER “DIONIGI”
INDEX 01 16:55:00
TRACK 06 AUDIO
TITLE “Cold Breath”
PERFORMER “JIMMY ROQSTA”
INDEX 01 25:06:00
TRACK 07 AUDIO
TITLE “Space Donkey”
PERFORMER “JIMMY ROQSTA”
INDEX 01 26:56:00
TRACK 08 AUDIO
TITLE “Grifon (Aquaphonik Glamour dub)”
PERFORMER “Antonio Banderas”
INDEX 01 33:33:00
TRACK 09 AUDIO
TITLE “Crescendo”
PERFORMER “JUAN POWER (JUAN MACLEAN/MAN POWER)”
INDEX 01 37:13:00
TRACK 10 AUDIO
TITLE “High Standards”
PERFORMER “YOST, Kevin/PETER FUNK”
INDEX 01 37:57:00
TRACK 11 AUDIO
TITLE “Gambling In Vegas”
PERFORMER “C DA AFRO”
INDEX 01 43:37:00
TRACK 12 AUDIO
TITLE “Love Affair”
PERFORMER “MOTTE”
INDEX 01 46:48:00
TRACK 13 AUDIO
TITLE “Evil Presidentes”
PERFORMER “MR BC feat. L. Longchamp”
INDEX 01 48:50:00
TRACK 14 AUDIO
TITLE “Where Dubs Live Come On In (original)”
PERFORMER “ROBJAMWEB”
INDEX 01 54:37:00
TRACK 15 AUDIO
TITLE “No Price (Demi RiquA­simo extended remix) (Demi RiquA simo extended remix)”
PERFORMER “SLAM DUNK’D feat. AL-P/CHROMEO”
INDEX 01 59:14:00
TRACK 16 AUDIO
TITLE “You Make Me Feel (Michael Gray dub mix)”
PERFORMER “SYLVESTER”
INDEX 01 65:55:00
TRACK 17 AUDIO
TITLE “Skylab”
PERFORMER “RETRO SYSTEM”
INDEX 01 69:14:00
TRACK 18 AUDIO
TITLE “Throw The Dice”
PERFORMER “SEBB JUNIOR & SAMMY DEUCE”
INDEX 01 75:46:00
TRACK 19 AUDIO
TITLE “Volcanico (Mytron & Ofofo Remix)”
PERFORMER “Thomass Jackson”
INDEX 01 76:55:00
TRACK 20 AUDIO
TITLE “Go Figure (Original Mix)”
PERFORMER “Thomass Jackson”
INDEX 01 82:14:00
TRACK 21 AUDIO
TITLE “Doors (Extended Mix)”
PERFORMER “Mattei & Omich, Nathan Nicholson”
INDEX 01 84:20:00

%d bloggers like this: